#TITLE:Max 300;
#SUBTITLE:;
#ARTIST:Ω;
#TITLETRANSLIT:;
#SUBTITLETRANSLIT:;
#ARTISTTRANSLIT:Omega;
#CREDIT:;
#BANNER:;
#BACKGROUND:Catgirl_21.jpg;
#LYRICSPATH:;
#CDTITLE:;
#MUSIC:Max 300.mp3;
#OFFSET:0.000;
#SAMPLESTART:20.000;
#SAMPLELENGTH:12.000;
#SELECTABLE:YES;
#BPMS:0.000=300.000;
#STOPS:;
#BGCHANGES:0.000=Catgirl_21.jpg=1.000=0=0=1,
99999=-nosongbg-=1.000=0=0=0 // don't automatically add -songbackground-
;
// cache tags:
#FIRSTBEAT:20.000;
#LASTBEAT:448.000;
#SONGFILENAME:Songs/nhac/Max 300/Max 300.sm;
#HASMUSIC:1;
#HASBANNER:0;
#MUSICLENGTH:92.035;
// end cache tags

//---------------dance-single - ----------------
#NOTES:
     dance-single:
     :
     Challenge:
     15:
     1.000,1.000,0.608,0.043,0.244,722.000,56.000,4.000,0.000,0.000:
0000
0000
0000
0000
,
0000
0000
0000
0000
,
0000
0000
0000
0000
,
0000
0000
0000
0000
,
0000
0000
0000
0000
,
1000
0100
1000
0100
1000
0100
1000
0100
,
1000
0100
0010
0000
0001
0000
0010
0000
,
0000
0010
0100
1000
0001
0000
0010
0001
,
1000
0100
0000
1001
0000
1001
0000
0000
,
0001
0010
0100
0001
0010
0100
0001
1000
,
1000
0010
0001
0100
0001
0010
0100
1000
,
0100
0010
0001
1000
0100
0001
0010
0010
,
0100
0100
1001
1001
0000
0100
0000
1000
,
0100
1000
0100
1000
0100
1000
0100
0010
,
0001
0010
0001
0010
0001
0010
0100
1000
,
0100
0010
0001
0100
0010
1000
0100
0010
,
0001
0100
0010
1000
0100
0010
0001
0100
,
0110
1000
0000
0100
0000
1000
0000
0100
,
0000
1000
0000
0100
0000
0010
0000
0001
,
0000
0010
0000
0100
0000
1000
0000
0010
,
0000
0100
0000
1000
0000
0001
0100
1000
,
0100
1000
0100
1000
0100
1000
0100
1000
,
0100
0010
0001
0100
0010
1000
0100
0010
,
0001
0010
0100
1000
0100
0010
0001
0100
,
0010
1000
0001
0100
0010
1000
0001
0010
,
0100
1000
0100
1000
,
0001
0010
0100
1000
,
0100
0010
0001
1000
,
0001
1000
0001
0010
,
1000
0100
0010
0001
0010
0100
1000
0100
,
0010
0001
0001
0010
0100
0001
0010
0100
,
1000
0100
0010
0100
1000
0100
0001
0010
,
0100
0001
0010
0100
1000
0001
0000
0000
,
1000
0100
0001
0010
,
0100
1000
0100
0010
,
0001
1000
0001
1000
,
0010
0100
0010
0100
,
1000
0100
0010
0001
,
1000
0100
0001
0010
,
0100
1000
0100
0010
,
0001
0100
0010
0001
,
1000
0100
0010
0001
,
0100
0010
0001
0010
,
0100
0010
0100
0010
,
0100
0000
0010
1001
0000
0000
1000
0100
,
1000
0000
1000
0001
1000
0000
1000
0010
,
1000
0000
1000
0100
1000
0000
1000
0010
,
1000
0000
0001
0010
0001
0000
0001
1000
,
0001
0000
0001
0100
0001
0000
0001
0010
,
0001
0000
1000
0001
1000
0000
0001
1000
,
0001
0000
0010
0100
0010
0000
0100
0010
,
0100
0000
1000
0100
0010
0000
0001
0010
,
0100
0000
1000
0001
0100
0000
0001
1000
,
0100
0000
0010
0100
0001
0000
0100
0010
,
1000
0000
1001
1001
0000
1001
1001
0000
,
1001
1001
0000
1001
0000
1001
0000
0000
,
1001
0000
1001
0000
0000
1000
0100
1000
,
0100
1000
0100
1000
0100
1000
0100
0010
,
0001
0010
0001
0010
0001
0010
0001
0010
,
0100
0010
0100
0010
0100
0010
0100
0010
,
0100
0010
0100
0001
0010
0100
1000
0100
,
0010
0001
0010
0100
1000
0100
0010
0001
,
1000
0001
1000
0100
0010
0001
0010
0100
,
1000
0100
0010
0001
0010
0100
1000
0100
,
1000
0100
1000
0100
0010
0001
0010
0001
,
0010
0001
0010
0100
0010
0100
0010
0100
,
0010
1000
0010
1000
0010
1000
0010
1000
,
0001
0100
0001
0100
0001
0100
0001
0100
,
0001
1001
1001
1001
1001
1001
1001
1001
,
0110
0110
0110
0110
0110
0110
0110
1100
,
1100
1100
0011
0011
0011
0110
0110
0110
,
0110
1001
0110
1001
0110
1001
0110
1001
,
0110
1001
1001
1001
0110
0110
2002
0000
,
0000
0000
0000
0000
,
0000
0000
0000
3003
0000
0000
0000
0000
,
0000
0000
0000
0000
,
0000
0000
0000
0000
,
0000
1000
0100
1000
0100
1000
0100
0010
,
0001
0010
0100
0010
0001
0010
0100
1000
,
0100
0001
0100
0010
0100
1000
0001
0010
,
0100
0001
1000
0100
0010
0001
0100
0010
,
1000
0100
0010
0001
0100
0010
1000
0100
,
0010
0001
0100
0010
1000
0100
0010
0001
,
0100
0010
1000
0100
0010
0001
0100
0010
,
1000
0001
1000
0100
0100
0100
0100
0100
,
0100
0100
0001
0001
0001
0001
0001
0001
,
0001
1000
1000
1000
1000
1000
1000
0100
,
0100
0100
0100
0100
0100
0010
0010
0010
,
0010
0000
0010
0000
0010
0000
0010
0000
0010
0000
0010
0000
0000
0000
1000
0001
,
1000
0001
1000
0001
1000
0001
1000
0001
1000
0001
1000
0001
1000
0001
1000
0001
,
1000
0100
0010
0001
0100
0010
1000
0100
0010
0001
0100
0010
1000
0100
0010
0001
,
0100
0010
1000
0100
0010
0001
0100
0010
1000
0100
0010
0001
0100
0010
1000
0100
,
0010
0001
0100
0010
1000
0100
0010
0001
0100
0010
0000
0000
1000
0000
0100
0000
,
0010
0001
0000
1001
0100
0010
0001
0100
,
0010
0001
1000
0100
0010
0001
0010
0100
,
1000
0100
0100
1000
0100
0010
0010
0001
,
0001
0010
0010
0100
0100
1000
1000
0100
,
0100
0010
0010
0001
0001
0100
0100
0010
,
0010
1000
1000
0100
0100
0010
0010
0001
,
0001
0010
0010
0100
0100
1000
1000
0100
,
0100
0010
0010
0001
0001
0010
0010
0100
,
0100
1000
1000
0001
0001
1000
1000
0001
,
0001
0010
0010
0100
0100
1000
1000
0100
,
0100
0010
0010
0001
0001
0010
0010
0100
,
0100
1000
1000
0100
0100
0010
0010
0100
,
0100
0001
0001
1000
1000
0001
0001
1000
,
1000
0010
0010
0100
0100
0010
0010
0100
,
0100
0000
0000
0000
0000
0000
1000
1000
1000
1000
1000
1000
0000
0000
0000
0000
,
0001
0001
0001
0001
0001
0001
0001
0001
0000
0000
0000
0000
0000
0000
0000
0000
,
0100
0010
0100
0010
0100
0010
0100
0010
0100
0010
0100
0010
0100
0010
0100
0000
,
0000
2002
0000
0000
0000
0000
0000
0000
0000
0000
0000
0000
0000
0000
0000
0000
,
0000
0000
0000
0000
,
3003
0000
0000
0000
;
